分类 动画 下的文章

小黄鸭大电影《妈妈咪鸭》讲述了雁群往南方迁徙的途中,“最棒飞行家”大鹏桀骜不驯爱捣乱,和他的女友晶晶调情时不慎撞散了一群赶路的小鸭子。不服管教的大鹏决定单飞,不得已和两只落单的小鸭子淘淘、憇憇组成了“临时父子档”,踏上了一路乌龙的寻亲和南迁之旅。

他们经历了一连串惊险、刺激又有趣的冒险。划过壮美的梯田,爬过冷峻的山脉,遇上好心收留他们的母鸡和妻管严公鸡、搭乘春运卡车的猪群、半瓶子中医技能的松鼠。路途中要时刻抵御想吃掉他们的恶猫,还险些成为“盘中烤鸭”。大鹏与淘淘姐弟两的命运紧紧关联,孤傲的大鹏也逐渐学会了责任与耐心。最后,焕然一新的大鹏得到了女友晶晶的原谅,和两只小鸭子组成了爱意满满的小家庭。

导演: 赵锐 / 克里斯托弗·詹金斯
编剧: 丁丁 / 包欧 / 吴亦欢 / 克里斯托弗·詹金斯 / 罗布·缪尔
主演: 赵路 / 武皓栋 / 殷筱瑜 / 金蝉妃 / 童自荣 / 吴磊 / 赵乾景 / 李传缨 / 姜玉玲 / 曹真 / 王肖兵
类型: 喜剧 / 动画 / 家庭 / 冒险
制片国家/地区: 中国大陆 / 美国
语言: 汉语普通话 / 英语
上映日期: 2018-03-09(中国大陆) / 2018-04-20(美国)
片长: 90分钟
又名: Duck Duck Goose
IMDb链接: tt4940416

影片下载:妈妈咪鸭 .2018.HD1080P.X264.AAC.国语中字


改编自玛丽·斯图尔特英国儿童文学小说,玛丽被送到乡下阿姨家过暑假,在一只小黑猫的带领下,她进入森林找到一束紫色魔法花,打扫院落时她用沾有花粉的手碰了扫帚,扫帚突然腾空而起,竟然把她送到森林深处的魔法学校,在这里她学习各种神奇有趣的魔法,但玛丽也发现了这所学校不可告人的秘密。

导演: 米林宏昌
编剧: 坂口理子 / 米林宏昌 / 玛丽·斯图尔特
主演: 杉咲花 / 神木隆之介 / 天海祐希 / 小日向文世 / 满岛光 / 佐藤二朗 / 远藤宪一 / 渡边绘里 / 大竹忍
类型: 剧情 / 动画 / 奇幻 / 冒险
官方网站: maryflower.jp
制片国家/地区: 日本
语言: 日语
上映日期: 2018-04-28(中国大陆) / 2017-07-08(日本)
片长: 102分钟
又名: 玛莉与魔女之花(港) / 梅莉和魔女的花 / 梅莉与魔女之花 / 梅亚丽与魔女之华 / Mary and The Witch's Flower
IMDb链接: tt6336356

影片下载:[玛丽与魔女之花][BluRay-720P.MKV][2.6GB][中文字幕]


古色古香的京都,奇妙的恋爱之旅正在展开。春天,黑发少女踏上寻找伪电气白兰地的夜之旅,学长却被从天而降的锦鲤砸晕;夏天,少女在旧书市寻找心爱的童年绘本,学长则面临残酷的火锅地狱;秋天,身背红鲤鱼的少女化身不倒翁公主,与拼死出演顽固王的学长相遇在学园祭的舞台;冬天,手持梦幻感冒药的少女打倒感冒之神,与学长一起向京都的天空飞去……

导演: 汤浅政明
编剧: 上田诚 / 森见登美彦
主演: 星野源 / 花泽香菜 / 神谷浩史 / 秋山竜次 / 中井和哉 / 甲斐田裕子 / 吉野裕行 / 新妻圣子 / 诹访部顺一 / 悠木碧 / 桧山修之 / 山路和弘 / 麦人
类型: 喜剧 / 爱情 / 动画 / 奇幻
官方网站: kurokaminootome.com
制片国家/地区: 日本
语言: 日语
上映日期: 2017-04-07(日本)
片长: 93分钟
又名: 夜短梦长,少女前进吧!(港) / The Night is Short, Walk on Girl
IMDb链接: tt6335734

影片下载:Night.Is.Short.Walk.on.Girl.2017.BD720P&BD1080P.X264.AAC.Japanese.CHS.MF


According to the list of special features included with upcoming animated feature Batman and Harley Quinn, the next DC Animation direct-to-video release will be Batman: Gotham by Gaslight, an adaptation of the first ever DC Comics Elseworlds story.

导演: 刘山姆
编剧: 詹姆斯·克里格 / 鲍勃·凯恩 / 比尔·芬格 / 迈克·米格诺拉 / Eduardo Barreto / Brian Augustyn
主演: 詹妮弗·卡朋特 / 塔拉·斯特朗 / 布鲁斯·格林伍德 / 斯科特·帕特森 / 格蕾·德丽斯勒 / 卡瑞·伍尔 / 约翰·迪·玛吉欧 / 安东尼·海德 / 尤里·洛文塔尔 / 林肯·梅尔彻 / 布鲁斯·提姆 / 威廉·赛莱耶 / Chris Cox / Bob Joles / David Forseth
类型: 动画
制片国家/地区: 美国
语言: 英语
上映日期: 2018-01-23(美国)
片长: 78分钟
IMDb链接: tt7167630

影片下载:Batman.Gotham.by.Gaslight.2018.1080p.BluRay.AVC.DTS-HD.MA.5.1-FGT

Genocidal.Organ.2017.1080p.BluRay.x264.DTS-WiKi

◎译  名 虐杀器官

◎片  名 虐殺器官

◎年  代 2017

◎产  地 日本

◎类  别 科幻/动画

◎语  言 日语

◎上映日期 2017-02-03(日本)

◎IMDb评分  6.6/10 from 153 users

◎豆瓣评分 7.2/10 from 1,526 users

◎片  长 115分钟

◎导  演 村濑修功 Shukō Murase

◎主  演 中村悠一 Yuuichi Nakamura

三上哲 Satoshi Mikami

梶裕贵 Yûki Kaji

石川界人 Kaito Ishikawa

大塚明夫 Akio Ôtsuka

小林沙苗 Sanae Kobayashi

樱井孝宏 Takahiro Sakurai

◎简  介

《屠杀器官》的舞台将设定在赛拉耶佛核爆后的地球,此时部分落后国家爆发了一连串内战及民族冲突,在这血腥风暴之中,美国特殊情报部队「克拉维斯(クラヴィス)」发现了在阴影之下有一名叫「约翰·保罗(ジョン・ポール)」的美国人参与其中,约翰路过之处必定掀起腥风血雨,这让众人疯狂的 「屠杀器官」到底是什么?

剧场版动画《屠杀器官》根据早逝的天才科幻小说作家伊藤计划的同名小说改编,由富士电视台的noitaminA节目企划,manglobe制作,将于2015年10月上映。

Video
ID                                       : 1
Format                                   : AVC
Format/Info                              : Advanced Video Codec
Format profile                           : [email protected]
Format settings                          : CABAC / 4 Ref Frames
Format settings, CABAC                   : Yes
Format settings, ReFrames                : 4 frames
Codec ID                                 : V_MPEG4/ISO/AVC
Duration                                 : 1 h 54 min
Bit rate                                 : 10.3 Mb/s
Width                                    : 1 920 pixels
Height                                   : 1 080 pixels
Display aspect ratio                     : 16:9
Frame rate mode                          : Constant
Frame rate                               : 23.976 (24000/1001) FPS
Color space                              : YUV
Chroma subsampling                       : 4:2:0
Bit depth                                : 8 bits
Scan type                                : Progressive
Bits/(Pixel*Frame)                       : 0.207
Stream size                              : 8.23 GiB (84%)
Writing library                          : x264 core 129 r2245+704+36 8e61944 tMod+MixAQ [[email protected]:2:0 X86_64]
Encoding settings                        : cabac=1 / ref=4 / deblock=1:-1:-1 / analyse=0x3:0x133 / me=umh / subme=11 / psy=1 / fade_compensate=0.00 / psy_rd=1.05:0.10 / mixed_ref=1 / me_range=64 / chroma_me=1 / trellis=2 / 8x8dct=1 / cqm=0 / deadzone=21,11 / fast_pskip=0 / chroma_qp_offset=-3 / threads=18 / lookahead_threads=3 / sliced_threads=0 / nr=0 / decimate=0 / interlaced=0 / bluray_compat=0 / constrained_intra=0 / fgo=0 / bframes=10 / b_pyramid=2 / b_adapt=2 / b_bias=0 / direct=3 / weightb=1 / open_gop=0 / weightp=2 / keyint=250 / keyint_min=23 / scenecut=40 / intra_refresh=0 / rc=2pass / mbtree=0 / bitrate=10288 / ratetol=1.0 / qcomp=0.70 / qpmin=0 / qpmax=69 / qpstep=4 / cplxblur=20.0 / qblur=0.5 / ip_ratio=1.40 / pb_ratio=1.30 / aq=1 / aq-strength=0.95 / aq-sensitivity=10.00 / aq-ifactor=1.00 / aq-pfactor=1.00 / aq-bfactor=1.00 / aq2=0
Language                                 : Japanese
Default                                  : Yes
Forced                                   : No

Audio #1
ID                                       : 2
Format                                   : DTS
Format/Info                              : Digital Theater Systems
Codec ID                                 : A_DTS
Duration                                 : 1 h 54 min
Bit rate mode                            : Constant
Bit rate                                 : 1 509 kb/s
Channel(s)                               : 6 channels
Channel positions                        : Front: L C R, Side: L R, LFE
Sampling rate                            : 48.0 kHz
Frame rate                               : 93.750 FPS (512 SPF)
Bit depth                                : 24 bits
Compression mode                         : Lossy
Stream size                              : 1.21 GiB (12%)
Language                                 : Japanese
Default                                  : Yes
Forced                                   : No

Audio #2
ID                                       : 3
Format                                   : AC-3
Format/Info                              : Audio Coding 3
Codec ID                                 : A_AC3
Duration                                 : 1 h 54 min
Bit rate mode                            : Constant
Bit rate                                 : 384 kb/s
Channel(s)                               : 2 channels
Channel positions                        : Front: L R
Sampling rate                            : 48.0 kHz
Frame rate                               : 31.250 FPS (1536 SPF)
Bit depth                                : 16 bits
Compression mode                         : Lossy
Stream size                              : 315 MiB (3%)
Language                                 : Chinese
Service kind                             : Complete Main
Default                                  : No
Forced                                   : No

Text #1
ID                                       : 4
Format                                   : UTF-8
Codec ID                                 : S_TEXT/UTF8
Codec ID/Info                            : UTF-8 Plain Text
Duration                                 : 1 h 48 min
Bit rate                                 : 51 b/s
Count of elements                        : 1216
Stream size                              : 40.9 KiB (0%)
Title                                    : Simplified
Language                                 : Chinese
Default                                  : Yes
Forced                                   : No

Text #2
ID                                       : 5
Format                                   : UTF-8
Codec ID                                 : S_TEXT/UTF8
Codec ID/Info                            : UTF-8 Plain Text
Duration                                 : 1 h 48 min
Bit rate                                 : 51 b/s
Count of elements                        : 1216
Stream size                              : 40.9 KiB (0%)
Title                                    : Traditional
Language                                 : Chinese
Default                                  : No
Forced                                   : No

Menu
00:00:00.000                             : en:00:00:00.000
00:02:13.049                             : en:00:02:13.049
00:16:27.945                             : en:00:16:27.945
00:19:00.556                             : en:00:19:00.556
00:21:27.786                             : en:00:21:27.786
00:28:02.180                             : en:00:28:02.180
00:29:48.536                             : en:00:29:48.536
00:37:28.913                             : en:00:37:28.913
00:42:08.984                             : en:00:42:08.984
00:44:07.436                             : en:00:44:07.436
00:48:42.711                             : en:00:48:42.711
00:53:14.232                             : en:00:53:14.232
00:57:21.187                             : en:00:57:21.187
01:01:45.326                             : en:01:01:45.326
01:05:24.295                             : en:01:05:24.295
01:16:28.625                             : en:01:16:28.625
01:21:16.246                             : en:01:21:16.246
01:27:24.405                             : en:01:27:24.405
01:30:40.101                             : en:01:30:40.101
01:42:55.252                             : en:01:42:55.252
01:49:20.387                             : en:01:49:20.387



影片下载:Genocidal.Organ.2017.1080p.BluRay.x264.DTS-WiKi