标签 2017 下的文章

◎译  名 亲切的弗吉尼亚
◎片  名 Sweet Virginia
◎年  代 2017
◎产  地 美国
◎类  别 剧情/惊悚
◎字  幕 中英双字幕
◎上映日期 2017-04-21(翠贝卡电影节)/2017-11-17(美国)
◎IMDb评分 6.8/10 from 138 users
◎文件格式 HD-RMVB
◎视频尺寸 1280 x 720
◎文件大小 1CD
◎片  长 105分钟
◎导  演 Jamie M. Dagg
◎主  演 伊莫琴·普茨 Imogen Poots
乔·博恩瑟 Jon Bernthal
克里斯托弗·阿波特 Christopher Abbott
罗丝玛丽·德薇特 Rosemarie DeWitt
Odessa Young
安德里雅·施特方西科瓦 Andrea Stefancikova

◎简  介

述乔·博恩瑟饰演的商人和一个有严重暴力倾向的年轻男子关系密切,而这却让整个小镇不安……

影片下载:复制链接到迅雷下载:thunder://QUFmdHA6Ly95Z2R5ODp5Z2R5OEB5ZzcyLmR5ZHl0dC5uZXQ6ODA4NC9bJUU5JTk4JUIzJUU1JTg1JTg5JUU3JTk0JUI1JUU1JUJEJUIxd3d3LnlnZHk4Lm5ldF0uJUU0JUJBJUIyJUU1JTg4JTg3JUU3JTlBJTg0JUU1JUJDJTk3JUU1JTkwJTg5JUU1JUIwJUJDJUU0JUJBJTlBLkhELjcyMHAuJUU0JUI4JUFEJUU4JThCJUIxJUU1JThGJThDJUU1JUFEJTk3JUU1JUI5JTk1LnJtdmJaWg==

◎译  名 复仇天使

◎片  名 M.F.A.

◎年  代 2017

◎产  地 美国

◎类  别 剧情/犯罪/惊悚

◎语  言 英语

◎上映日期 2017-03-13(西南偏南电影节)/2017-10-13(美国)

◎IMDb评分  5.7/10 from 881 users

◎IMDb链接  http://www.imdb.com/title/tt5091530/

◎豆瓣评分 5.7/10 from 297 users

◎豆瓣链接 https://movie.douban.com/subject/27024947/

◎BT之家整理 http://www.btbtt.me/

◎片  长 95分钟

◎导  演 娜塔莉·雷特 Natalia Leite

◎主  演 弗朗西斯卡·伊斯特伍德 Francesca Eastwood

小克利夫顿·克林斯 Clifton Collins Jr.

迈克·韦尔奇 Michael Welch

安德鲁·卡德威尔 Andrew Caldwell

大卫·苏利文 David Sullivan

彼得·瓦克 Peter Vack

亚当·拉扎尔-怀特 Adam Lazarre-White

马龙·杨 Marlon Young

Mike C. Manning

◎简  介

故事讲述艺术系女生诺丽遭到同学性侵后,决定正面PK性侵者、展开还击计划。影片今秋北美上映。

Video
ID                                       : 1
Format                                   : AVC
Format/Info                              : Advanced Video Codec
Format profile                           : [email protected]
Format settings                          : CABAC / 4 Ref Frames
Format settings, CABAC                   : Yes
Format settings, ReFrames                : 4 frames
Codec ID                                 : V_MPEG4/ISO/AVC
Duration                                 : 1 h 32 min
Bit rate                                 : 12.6 Mb/s
Width                                    : 1 920 pixels
Height                                   : 1 038 pixels
Display aspect ratio                     : 1.85:1
Frame rate mode                          : Constant
Frame rate                               : 23.976 (24000/1001) FPS
Color space                              : YUV
Chroma subsampling                       : 4:2:0
Bit depth                                : 8 bits
Scan type                                : Progressive
Bits/(Pixel*Frame)                       : 0.264
Stream size                              : 8.11 GiB (88%)
Language                                 : English
Default                                  : Yes
Forced                                   : No

Audio
ID                                       : 2
Format                                   : DTS
Format/Info                              : Digital Theater Systems
Codec ID                                 : A_DTS
Duration                                 : 1 h 32 min
Bit rate mode                            : Constant
Bit rate                                 : 1 509 kb/s
Channel(s)                               : 6 channels
Channel positions                        : Front: L C R, Side: L R, LFE
Sampling rate                            : 48.0 kHz
Frame rate                               : 93.750 FPS (512 SPF)
Bit depth                                : 16 bits
Compression mode                         : Lossy
Stream size                              : 994 MiB (10%)
Language                                 : English
Default                                  : Yes
Forced                                   : No



影片下载:M.F.A.2017.1080p.BluRay.x264.DTS-MT[btbtt.me]

导演: Jung Dae-man (정대)

主演: Cast Han Yeong-hoon (한영훈) / Yoo Ji-won (유지원)

类型: 剧情 / 爱情 / 情色

制片国家/地区: 韩国

语言: 韩语

上映日期: 2017-01-12(韩国)

片长: 98分钟

又名: 聚会的目的-开端 / Reunion Goals - The Beginning

豆瓣评分:4.8

剧情简介:

男主爱的女神一直受很多人的追捧,女神的胴体时常在他脑中浮现,男主为了博取女主的爱,不断的了解她,随之竟然发现女主跟一富豪有某种肉体上的交易...男主能否追回女神的爱和那绝妙的肉体呢...这便开始了一场有目的的聚会...

影片下载:聚H的目的:开始.Reunion.Goals.The.Beginning.2017.HD720P.X264.AAC.Korean.CHT.mp4

◎译  名 黑雪

◎片  名 Nieve negra

◎年  代 2017

◎产  地 阿根廷/西班牙

◎类  别 剧情

◎语  言 西班牙语

◎上映日期 2017-01-19(阿根廷)

◎IMDb评分  6.2/10 from 2,447 users

◎豆瓣评分 6.5/10 from 57 users

◎片  长 90分钟

◎导  演 Martin Hodara

◎主  演 莱昂纳多·斯巴拉格利亚 Leonardo Sbaraglia

里卡杜·达林 Ricardo Darín

莱娅·柯丝达 Laia Costa

费德里科·路皮 Federico Luppi

◎简  介

因被指控杀害弟弟,萨尔瓦多独自生活在巴塔哥尼亚中部。几十年后,他的另一个弟弟马科斯携妻子,说服他出售祖产,分享遗产。随着事情发展,受害者和凶手角色不停地变换。

影片下载:黑雪.2017.720p高清西班牙语中英双字.mp4