[2017][欧美][喜剧][WEB-720P][BT下载][固定电话/地雷]Landline.2017.720p.WEB.x264-STRiFE 2.59GB

Landline.2017.720p.WEB.x264-STRiFE

◎译  名 固定电话/地雷

◎片  名 Landline

◎年  代 2017

◎产  地 美国

◎类  别 喜剧

◎语  言 英语

◎上映日期 2017-01-20(圣丹斯电影节)/2017-07-21(美国)

◎IMDb评分  6.4/10 from 1,125 users

◎IMDb链接  http://www.imdb.com/title/tt5737862/

◎豆瓣评分 6.2/10 from 27 users

◎导  演 吉莉安·罗伯斯比尔 Gillian Robespierre

◎主  演 珍妮·斯蕾特 Jenny Slate

埃迪·法可 Edie Falco

约翰·特托罗 John Turturro

杰伊·杜普拉斯 Jay Duplass

芬·维特洛克 Finn Wittrock

Jordan Carlos

Abby Quinn

◎简  介

珍妮·斯蕾特将再与美国女导演吉莉安·罗伯斯比尔合作,拍摄喜剧片《固定电话》(Landline)。这部电影由珍妮·斯蕾特和艾比·奎因主演,两人在影片中饰演姐妹,故事讲述她们发现父亲欺骗母亲后,两人之间的矛盾冲突。该片将于5月23日开拍。

Video
ID                                       : 1
Format                                   : AVC
Format/Info                              : Advanced Video Codec
Format profile                           : High@L3.1
Format settings                          : CABAC / 5 Ref Frames
Format settings, CABAC                   : Yes
Format settings, RefFrames               : 5 frames
Codec ID                                 : V_MPEG4/ISO/AVC
Duration                                 : 1 h 37 min
Bit rate mode                            : Variable
Bit rate                                 : 3 175 kb/s
Maximum bit rate                         : 4 500 kb/s
Width                                    : 1 280 pixels
Height                                   : 528 pixels
Display aspect ratio                     : 2.40:1
Original display aspect ratio            : 2.40:1
Frame rate mode                          : Constant
Frame rate                               : 23.976 (24000/1001) FPS
Color space                              : YUV
Chroma subsampling                       : 4:2:0
Bit depth                                : 8 bits
Scan type                                : Progressive
Bits/(Pixel*Frame)                       : 0.196
Stream size                              : 2.16 GiB (83%)
Writing library                          : x264 core 148
Encoding settings                        : cabac=1 / ref=5 / deblock=1:-1:-1 / analyse=0x3:0x133 / me=umh / subme=9 / psy=1 / psy_rd=1.00:0.15 / mixed_ref=1 / me_range=24 / chroma_me=1 / trellis=2 / 8x8dct=1 / cqm=0 / deadzone=21,11 / fast_pskip=1 / chroma_qp_offset=-3 / threads=16 / lookahead_threads=2 / sliced_threads=0 / nr=150 / decimate=1 / interlaced=0 / bluray_compat=0 / constrained_intra=0 / bframes=8 / b_pyramid=2 / b_adapt=2 / b_bias=0 / direct=3 / weightb=1 / open_gop=0 / weightp=2 / keyint=120 / keyint_min=61 / scenecut=0 / intra_refresh=0 / rc_lookahead=120 / rc=crf / mbtree=1 / crf=18.0 / qcomp=0.60 / qpmin=0 / qpmax=69 / qpstep=4 / vbv_maxrate=4500 / vbv_bufsize=17500 / crf_max=0.0 / nal_hrd=vbr / filler=0 / ip_ratio=1.40 / aq=3:1.00
Language                                 : English
Default                                  : Yes
Forced                                   : No
Color range                              : Limited
Color primaries                          : BT.709
Transfer characteristics                 : BT.709
Matrix coefficients                      : BT.709

Audio
ID                                       : 2
Format                                   : E-AC-3
Format/Info                              : Enhanced Audio Coding 3
Format settings, Endianness              : Big
Codec ID                                 : A_EAC3
Duration                                 : 1 h 37 min
Bit rate mode                            : Constant
Bit rate                                 : 640 kb/s
Channel(s)                               : 6 channels
Channel positions                        : Front: L C R, Side: L R, LFE
Sampling rate                            : 48.0 kHz
Frame rate                               : 187.500 FPS (256 SPF)
Compression mode                         : Lossy
Stream size                              : 445 MiB (17%)
Language                                 : English
Service kind                             : Complete Main
Default                                  : Yes
Forced                                   : No

Text
ID                                       : 3
Format                                   : UTF-8
Codec ID                                 : S_TEXT/UTF8
Codec ID/Info                            : UTF-8 Plain Text
Duration                                 : 1 h 34 min
Bit rate                                 : 74 b/s
Count of elements                        : 1984
Stream size                              : 51.6 KiB (0%)
Language                                 : English
Default                                  : No
Forced                                   : No

影片下载:

温馨提示: 此处内容需要评论本文后才能查看.

未经允许不得转载:火热播 » [2017][欧美][喜剧][WEB-720P][BT下载][固定电话/地雷]Landline.2017.720p.WEB.x264-STRiFE 2.59GB
微信公众号:火热播
关注我们,每天分享更多有趣的事儿,有趣有料!
13728人已关注
分享到:
赞(1) 打赏

为什么想看 / 观后感抢沙发

  • 昵称 (必填)
  • 邮箱 (必填)
  • 网址

觉得文章有用就打赏一下文章作者

支付宝扫一扫打赏

微信扫一扫打赏