标签 2017 下的文章

Image

※※※※※※※ 影片信息 ※※※※※※※

◎译  名 加勒比海盗5:死无对证/加勒比海盗:恶灵启航(港)/加勒比海盗 神鬼奇航:死无对证(台)/加勒比海盗5:亡灵的缄默/加勒比海盗5:亡者无言/加勒比海盗5:死人不会告密

◎片  名 Pirates of the Caribbean: Dead Men Tell No Tales

◎年  代 2017

◎产  地 美国

◎类  别 动作/奇幻/冒险

◎语  言 英语

◎上映日期 2017-05-26(中国大陆)/2017-05-26(美国)

◎IMDb评分  6.9/10 from 107,145 users

◎豆瓣评分 7.3/10 from 143,031 users

◎片  长 129分钟

◎导  演 艾斯彭·山德伯格 Espen Sandberg / 乔阿吉姆·罗恩尼 Joachim R?nning

◎主  演 约翰尼·德普 Johnny Depp

哈维尔·巴登 Javier Bardem

杰弗里·拉什 Geoffrey Rush

布伦顿·思韦茨 Brenton Thwaites

卡雅·斯考达里奥 Kaya Scodelario

凯文·麦克纳利 Kevin McNally

格什菲·法拉哈尼 Golshifteh Farahani

奥兰多·布鲁姆 Orlando Bloom

凯拉·奈特莉 Keira Knightley

斯蒂芬·格拉汉姆 Stephen Graham

大卫·文翰 David Wenham

保罗·麦卡特尼 Paul McCartney

马丁·科勒巴 Martin Klebba

亚当·布朗 Adam Brown

丹尼·基兰 Danny Kirrane

马赫什·扎杜 Mahesh Jadu

胡安·卡洛斯·凡希多 Juan Carlos Vellido

 

◎简  介

故事发生在《加勒比海盗3:世界的尽头》沉船湾之战20年后。 男孩亨利(布兰顿·思怀兹 Brenton Thwaites 饰)随英国海军出航寻找被聚魂棺诅咒的父亲“深海阎王”威尔·特纳(奥兰多·布鲁姆 Orlando Bloom 饰),却在百慕大三角遭遇被解封的亡灵萨拉查船长(哈维尔·巴登 Javier Bardem 饰)。获取自由的萨拉查屠尽加勒比海盗,征服了整个海域,手刃了“黑胡子”爱德华·蒂奇(伊恩·麦柯肖恩 Ian McShane 饰)的里海海盗王赫克托·巴博萨船长(杰弗里·拉什 Geoffrey Rush 饰)在女巫Haifaa Meni(格什菲·法拉哈尼 Golshifteh Farahani 饰)口中得知了萨拉查的真实目的:为寻找他的宿敌杰克船长(约翰尼·德普 Johnny Depp 饰)。海盗的命运皆压在落魄的老杰克被封印的黑珍珠号,以及天文学家卡琳娜·史密斯(卡雅·斯考达里奥 Kaya Scodelario 饰)口中的远古三叉戟上。

 

※※※※※※※ 资料参数 ※※※※※※※

 

文件名: [加勒比海盗5:死无对证].Pirates.of.the.Caribbean.5.Dead.Men.Tell.No.Tales.2017.BluRay.1080p.x264.DTS.2Audios-CMCT.mkv

日 期: 2017/12/14

体 积: 11.00 GB

时 长: 02:09:07

片 源: Pirates of the Caribbean Dead Men Tell No Tales 2017 1080p RUS Blu-ray AVC DTS-HD MA 7.1-PCH

帧 率: 23.976 fps

参 数: me=umh, subme=11

分辨率: 1920 x 1080 (16:9)

视 频: x264 @ 10000 Kbps

音 频: DTS 5.1 @ 1510 kbps (英语)

AC3 5.1 @ 640 kbps (国语)

字 幕: 中上英下ASS/英上中下ASS/国配简体ASS/国配繁体ASS/英文ASS

字幕源: 小五@CMCT

压 制: 无尽@CMCT

调 校: 小五@CMCT

 

※※※※※※※ 截图信息 ※※※※※※※

Image

影片下载:加勒比海盗5:死无对证.2017.1080p.国英双语.中英字幕£CMCT无尽

◎译  名 金刚狼3:殊死一战/卢根(港)/罗根(台)/金刚狼3:罗根/金刚狼3:暮狼寻乡
◎片  名 Logan
◎年  代 2017
◎产  地 美国
◎类  别 剧情/动作/科幻
◎语  言 英语/西班牙语
◎上映日期 2017-02-17(柏林电影节)/2017-03-03(中国大陆)/2017-03-03(美国)/2017-05-16(黑白版)
◎IMDb评分  8.4/10 from 263,266 users
◎豆瓣评分 8.3/10 from 176,984 users
◎片  长 123分钟(中国大陆)/135分钟(柏林电影节)/137分钟(美国)
◎导  演 詹姆斯·曼高德 James Mangold
◎主  演 休·杰克曼 Hugh Jackman
帕特里克·斯图尔特 Patrick Stewart
达芙妮·金 Dafne Keen
波伊德·霍布鲁克 Boyd Holbrook
斯戴芬·莫昌特 Stephen Merchant
伊丽莎白·罗德里格斯 Elizabeth Rodriguez
多丽丝·莫尔加多 Doris Morgado
理查德·E·格兰特 Richard E. Grant
玛丽·佩顿·斯图尔特 Mary Peyton Stewart
伊利斯·尼尔 Elise Neal
艾瑞琪·拉·塞拉 Eriq La Salle
劳伦·格罗斯 Lauren Gros
胡安·贾斯帕 Juan Gaspard
克日什托夫·索什斯基 Krzysztof Soszynski
萨博·班克森 Saber Bankson

◎简  介

故事发生在2029年,彼时,X战警早已经解散,作为为数不多的仅存的变种人,金刚狼罗根(休·杰克曼 Hugh Jackman 饰)和卡利班(斯戴芬·莫昌特 Stephen Merchant 饰)照顾着年迈的X教授(帕特里克·斯图尔特 Patrick Stewart 饰),由于衰老,X教授已经丧失了对于自己超能力的控制,如果不依赖药物,他的超能力就会失控,在全球范围内制造无法挽回的灾难。不仅如此,金刚狼的自愈能力亦随着时间的流逝逐渐减弱,体能和力量都早已经大不如从前。
某日,一位陌生女子找到了金刚狼,将一个名为劳拉(达芙妮·基恩 Dafne Keen 饰)的女孩托付给他,嘱咐他将劳拉送往位于加拿大边境的“伊甸园”。让罗根没有想到的是,劳拉竟然是被植入了自己的基因而培养出的人造变种人,而在传说中的伊甸园里,有着一群和劳拉境遇相似的孩子。邪恶的唐纳德(波伊德·霍布鲁克 Boyd Holbrook 饰)紧紧的追踪着罗根一行人的踪迹,他的目标只有一个,就是将那群人造变种人彻底毁灭。

DISC INFO:

Disc Title:     [email protected]
Disc Size:      53,250,264,176 bytes
Protection:     AACS2
BD-Java:        Yes
Extras:         Ultra HD
BDInfo:         0.5.8.6 (compatible layout created by DVDFab 10.0.6.2)

PLAYLIST REPORT:

Name:                   00800.MPLS
Length:                 2:17:23.276 (h:m:s.ms)
Size:                   51,880,126,464 bytes
Total Bitrate:          50.35 Mbps

VIDEO:

Codec                   Bitrate             Description
-----                   -------             -----------
MPEG-H HEVC Video       34982 kbps          2160p / 23.976 fps / 16:9 / Main 10 Profile 5.1 High / 4:2:0 / 10 bits / HDR / BT.2020 /

AUDIO:

Codec                           Language        Bitrate         Description
-----                           --------        -------         -----------
Dolby Atmos/TrueHD Audio        English         5638 kbps       7.1-Atmos / 48 kHz / 5638 kbps / 24-bit (AC3 Core: 5.1 / 48 kHz / 640 kbps)
DTS-HD Master Audio             English         2061 kbps       2.0 / 48 kHz / 2061 kbps / 24-bit (DTS Core: 2.0 / 48 kHz / 1509 kbps / 24-bit)
Dolby Digital Audio             English         448 kbps        5.1 / 48 kHz / 448 kbps
DTS-HD Master Audio             Chinese         2438 kbps       7.1 / 48 kHz / 2438 kbps / 16-bit (DTS Core: 5.1 / 48 kHz / 1509 kbps / 16-bit)       次时代国语特效
Dolby Digital Audio             French          448 kbps        5.1 / 48 kHz / 448 kbps
Dolby Digital Audio             English         224 kbps        2.0 / 48 kHz / 224 kbps

SUBTITLES:

Codec                           Language        Bitrate         Description
-----                           --------        -------         -----------
Presentation Graphics           English         33.033 kbps
Presentation Graphics           Spanish         22.992 kbps
Presentation Graphics           French          25.504 kbps
Presentation Graphics           Chinese         53.391 kbps                  国语简体特效
Presentation Graphics           Chinese         53.73 kbps                    国语繁体特效
Presentation Graphics           Chinese         72.363 kbps                  简英双语特效
Presentation Graphics           Chinese         72.696 kbps                  繁英双语特效

影片下载:Logan 2017 ULTRAHD Blu-ray 2160p HEVC Atoms TrueHD [email protected]

◎译  名 新永不消逝的电波

◎片  名 密战

◎年  代 2017

◎产  地 中国大陆

◎类  别 剧情/动作/战争

◎语  言 汉语普通话/英语

◎上映日期 2017-11-03(中国大陆)

◎豆瓣评分 4.8/10 from 9,248 users

◎豆瓣链接 https://movie.douban.com/subject/26316956/

◎片  长 100分钟

◎导  演 钟少雄 Siu-hung Chung

◎主  演 郭富城 Aaron Kwok

赵丽颖 Liying Zhao

张翰 Han Zhang

任达华 Simon Yam

张蓝心 Lanxin Zhang

朱一龙 Yilong Zhu

于晓光 Xiaoguang Yu

刘玥心 Yuexin Liu

奚美娟 Meijuan Xi

寇振海 Zhenhai Kou

由立平 Liping You

安亚平 Yaping An

孙耀威 Eric Suen

曹操 Jonathan Kos-Read

李滨 Bin Li

涂黎曼 Liman Tu

艾如 Ru Ai

◎简  介

淞沪会战后上海沦陷,地下工作者林翔(郭富城 饰)受命来到危机四伏的上海,重建惨遭敌人破坏的地下抗日战线。在这里他遇到单纯却很有正义感的兰芳(赵丽颖 饰),这对临时组成的“地下党夫妇”将在战火纷飞中,携手与日本侵略者及伪政府特务展开惊险刺激的生死较量……

General

Complete name               : 密战.Eternal.Wave.2017.4K.WEB-DL.X265.AAC.Mandarin.CHS-DYGC.mp4

Format                      : MPEG-4

Format profile              : Base Media

Codec ID                    : isom (isom/iso2/mp41)

File size                   : 2.43 GiB

Duration                    : 1 h 43 min

Overall bit rate mode       : Variable

Overall bit rate            : 3 347 kb/s

Writing application         : Lavf58.0.101

Video

ID                          : 1

Format                      : HEVC

Format/Info                 : High Efficiency Video Coding

Format profile              : [email protected]@Main

Codec ID                    : hev1

Codec ID/Info               : High Efficiency Video Coding

Duration                    : 1 h 43 min

Bit rate                    : 3 280 kb/s

Width                       : 3 840 pixels

Height                      : 1 608 pixels

Display aspect ratio        : 2.40:1

Frame rate mode             : Variable

Frame rate                  : 23.565 FPS

Minimum frame rate          : 2.186 FPS

Maximum frame rate          : 24.000 FPS

Original frame rate         : 24.000 FPS

Color space                 : YUV

Chroma subsampling          : 4:2:0

Bit depth                   : 8 bits

Bits/(Pixel*Frame)          : 0.023

Stream size                 : 2.38 GiB (98%)

Audio

ID                          : 2

Format                      : AAC

Format/Info                 : Advanced Audio Codec

Format profile              : HE-AAC / LC

Format settings             : Implicit

Codec ID                    : mp4a-40-2

Duration                    : 1 h 43 min

Bit rate mode               : Variable

Bit rate                    : 61.7 kb/s

Maximum bit rate            : 62.7 kb/s

Channel(s)                  : 2 channels

Channel positions           : Front: L R

Sampling rate               : 44.1 kHz / 22.05 kHz

Frame rate                  : 21.533 FPS (1024 SPF)

Compression mode            : Lossy

Stream size                 : 45.8 MiB (2%)

Default                     : Yes

Alternate group             : 1

内置HEVC视频,自选!!

影片下载:密战.Eternal.Wave.2017.4K&1080P.WEB-DL.X265&X264.AAC.Mandarin.CHS-DYGC

Genocidal.Organ.2017.1080p.BluRay.x264.DTS-WiKi

◎译  名 虐杀器官

◎片  名 虐殺器官

◎年  代 2017

◎产  地 日本

◎类  别 科幻/动画

◎语  言 日语

◎上映日期 2017-02-03(日本)

◎IMDb评分  6.6/10 from 153 users

◎豆瓣评分 7.2/10 from 1,526 users

◎片  长 115分钟

◎导  演 村濑修功 Shukō Murase

◎主  演 中村悠一 Yuuichi Nakamura

三上哲 Satoshi Mikami

梶裕贵 Yûki Kaji

石川界人 Kaito Ishikawa

大塚明夫 Akio Ôtsuka

小林沙苗 Sanae Kobayashi

樱井孝宏 Takahiro Sakurai

◎简  介

《屠杀器官》的舞台将设定在赛拉耶佛核爆后的地球,此时部分落后国家爆发了一连串内战及民族冲突,在这血腥风暴之中,美国特殊情报部队「克拉维斯(クラヴィス)」发现了在阴影之下有一名叫「约翰·保罗(ジョン・ポール)」的美国人参与其中,约翰路过之处必定掀起腥风血雨,这让众人疯狂的 「屠杀器官」到底是什么?

剧场版动画《屠杀器官》根据早逝的天才科幻小说作家伊藤计划的同名小说改编,由富士电视台的noitaminA节目企划,manglobe制作,将于2015年10月上映。

Video
ID                                       : 1
Format                                   : AVC
Format/Info                              : Advanced Video Codec
Format profile                           : [email protected]
Format settings                          : CABAC / 4 Ref Frames
Format settings, CABAC                   : Yes
Format settings, ReFrames                : 4 frames
Codec ID                                 : V_MPEG4/ISO/AVC
Duration                                 : 1 h 54 min
Bit rate                                 : 10.3 Mb/s
Width                                    : 1 920 pixels
Height                                   : 1 080 pixels
Display aspect ratio                     : 16:9
Frame rate mode                          : Constant
Frame rate                               : 23.976 (24000/1001) FPS
Color space                              : YUV
Chroma subsampling                       : 4:2:0
Bit depth                                : 8 bits
Scan type                                : Progressive
Bits/(Pixel*Frame)                       : 0.207
Stream size                              : 8.23 GiB (84%)
Writing library                          : x264 core 129 r2245+704+36 8e61944 tMod+MixAQ [[email protected]:2:0 X86_64]
Encoding settings                        : cabac=1 / ref=4 / deblock=1:-1:-1 / analyse=0x3:0x133 / me=umh / subme=11 / psy=1 / fade_compensate=0.00 / psy_rd=1.05:0.10 / mixed_ref=1 / me_range=64 / chroma_me=1 / trellis=2 / 8x8dct=1 / cqm=0 / deadzone=21,11 / fast_pskip=0 / chroma_qp_offset=-3 / threads=18 / lookahead_threads=3 / sliced_threads=0 / nr=0 / decimate=0 / interlaced=0 / bluray_compat=0 / constrained_intra=0 / fgo=0 / bframes=10 / b_pyramid=2 / b_adapt=2 / b_bias=0 / direct=3 / weightb=1 / open_gop=0 / weightp=2 / keyint=250 / keyint_min=23 / scenecut=40 / intra_refresh=0 / rc=2pass / mbtree=0 / bitrate=10288 / ratetol=1.0 / qcomp=0.70 / qpmin=0 / qpmax=69 / qpstep=4 / cplxblur=20.0 / qblur=0.5 / ip_ratio=1.40 / pb_ratio=1.30 / aq=1 / aq-strength=0.95 / aq-sensitivity=10.00 / aq-ifactor=1.00 / aq-pfactor=1.00 / aq-bfactor=1.00 / aq2=0
Language                                 : Japanese
Default                                  : Yes
Forced                                   : No

Audio #1
ID                                       : 2
Format                                   : DTS
Format/Info                              : Digital Theater Systems
Codec ID                                 : A_DTS
Duration                                 : 1 h 54 min
Bit rate mode                            : Constant
Bit rate                                 : 1 509 kb/s
Channel(s)                               : 6 channels
Channel positions                        : Front: L C R, Side: L R, LFE
Sampling rate                            : 48.0 kHz
Frame rate                               : 93.750 FPS (512 SPF)
Bit depth                                : 24 bits
Compression mode                         : Lossy
Stream size                              : 1.21 GiB (12%)
Language                                 : Japanese
Default                                  : Yes
Forced                                   : No

Audio #2
ID                                       : 3
Format                                   : AC-3
Format/Info                              : Audio Coding 3
Codec ID                                 : A_AC3
Duration                                 : 1 h 54 min
Bit rate mode                            : Constant
Bit rate                                 : 384 kb/s
Channel(s)                               : 2 channels
Channel positions                        : Front: L R
Sampling rate                            : 48.0 kHz
Frame rate                               : 31.250 FPS (1536 SPF)
Bit depth                                : 16 bits
Compression mode                         : Lossy
Stream size                              : 315 MiB (3%)
Language                                 : Chinese
Service kind                             : Complete Main
Default                                  : No
Forced                                   : No

Text #1
ID                                       : 4
Format                                   : UTF-8
Codec ID                                 : S_TEXT/UTF8
Codec ID/Info                            : UTF-8 Plain Text
Duration                                 : 1 h 48 min
Bit rate                                 : 51 b/s
Count of elements                        : 1216
Stream size                              : 40.9 KiB (0%)
Title                                    : Simplified
Language                                 : Chinese
Default                                  : Yes
Forced                                   : No

Text #2
ID                                       : 5
Format                                   : UTF-8
Codec ID                                 : S_TEXT/UTF8
Codec ID/Info                            : UTF-8 Plain Text
Duration                                 : 1 h 48 min
Bit rate                                 : 51 b/s
Count of elements                        : 1216
Stream size                              : 40.9 KiB (0%)
Title                                    : Traditional
Language                                 : Chinese
Default                                  : No
Forced                                   : No

Menu
00:00:00.000                             : en:00:00:00.000
00:02:13.049                             : en:00:02:13.049
00:16:27.945                             : en:00:16:27.945
00:19:00.556                             : en:00:19:00.556
00:21:27.786                             : en:00:21:27.786
00:28:02.180                             : en:00:28:02.180
00:29:48.536                             : en:00:29:48.536
00:37:28.913                             : en:00:37:28.913
00:42:08.984                             : en:00:42:08.984
00:44:07.436                             : en:00:44:07.436
00:48:42.711                             : en:00:48:42.711
00:53:14.232                             : en:00:53:14.232
00:57:21.187                             : en:00:57:21.187
01:01:45.326                             : en:01:01:45.326
01:05:24.295                             : en:01:05:24.295
01:16:28.625                             : en:01:16:28.625
01:21:16.246                             : en:01:21:16.246
01:27:24.405                             : en:01:27:24.405
01:30:40.101                             : en:01:30:40.101
01:42:55.252                             : en:01:42:55.252
01:49:20.387                             : en:01:49:20.387



影片下载:Genocidal.Organ.2017.1080p.BluRay.x264.DTS-WiKi

导演马丁·坎贝尔
编剧大卫·马可尼 / 史蒂芬·莱泽
主演: 成龙 / 皮尔斯·布鲁斯南 / 刘涛 / 梁佩诗 / 夏莉·墨菲 / 欧拉·布莱蒂 / 迈克尔·麦克埃尔哈顿 / 西蒙·坤茨 / 雷·费隆 / 罗里·弗莱克-拜恩/ 皮帕·贝内特-华纳 / 德尔莫特·克劳利 / 蒂利亚纳·布克丽瓦 / 鲁弗斯·琼斯 / 斯蒂芬·霍根
类型: 动作 / 惊悚
制片国家/地区: 英国 / 中国大陆
语言: 英语 / 汉语普通话
上映日期: 2017-09-30(中国大陆) / 2017-10-13(美国)
片长: 116分钟
又名: 龙震天下 / 普通人 / 中国人 / 外国佬 / The Chinaman
IMDb链接: tt1615160
豆瓣评分:7.2
 
剧情简介:
  关玉明(成龙 饰)和女儿小凡(梁佩诗 饰)在英国伦敦过着相依为命的日子。关玉明经营着一间小小的餐馆,老老实实的靠着辛勤劳作养活家庭,从未有过想要僭越法律或是道德的念头。然而,上天并不眷顾这个善良的男人,在一场恐怖袭击中,小凡不幸成为了受害者之一。 

  让关玉明无法接受的除了女儿的死之外,还有英国政府对此次事件的轻视和不作为。政府高官莱姆(皮尔斯·布鲁斯南 Pierce Brosnan 饰)出现在了关玉明的视野之中,他坚信莱姆和恐怖组织以及事件的真相有着不可分割的联系。既然法律和正义无法还关玉明一个公道,关玉明决定用自己的力量来为女儿复仇。

影片下载:英L对决.The.Foreigner.2017.HD720P.X264.AAC.English.CHS-ENG.mp4