被邀请的男人 The Invited Man (2017)[韩国][剧情][HD720P-1.78GB][韩语中字][BT下载]

※※※※※※※ 影片信息 ※※※※※※※

◎片   名 The Invited Man

◎译   名 被邀请的男人

◎年   代 2017

◎国   家 韩国

◎类   别 剧情 / 情色

◎语   言 韩语

◎上映日 期 2017-05-25(韩国)

◎字   幕 简体字幕/繁体字幕

◎视频尺 寸  1280x720p

◎片   长 1.33.41

◎导   演 Kang Yoo-min

◎编     剧  Erotic Melodrama Romance

◎主   演 李恩美 / Kang Min-woo / 韩娜

◎简  介

珉豪想要激情性爱和他的妻子Eun kyeong说,性是爱的验证。珉豪希望今晚又独特性但Eun kyeong只是想平时捉奸在床。有一天,在工作中Eun kyeong得到的性玩具。起初她不喜欢,但她无法克服按摩店的那种感觉,开始抚摸自己。珉豪看到这个,他得到角质。最后,他们做爱,他们永远不会忘记。此后,Eun kyeong打开了性别,当她丈夫的英俊的朋友sang-wook出现。恩京感到触电甚至轻轻一碰他,珉豪开始意识到有事情发生…

※※※※※※※ 参数信息 ※※※※※※※

General

Unique ID                      : 201266054193678588447277143390001048296 (0x976A6E9B3949EB578848D93F4DF82AE8)

Format                         : Matroska

Format version                 : Version 4 / Version 2

File size                      : 1.79 GiB

Duration                       : 1 h 33 min

Overall bit rate               : 2 730 kb/s

Encoded date                   : UTC 2017-12-26 11:31:06

Writing application            : mkvmerge v9.4.2 (‘So High’) 64bit

Writing library                : libebml v1.3.4 + libmatroska v1.4.5

Video

ID                             : 1

Format                         : AVC

Format/Info                    : Advanced Video Codec

Format profile                 : Baseline@L3.1

Format settings, CABAC         : No

Format settings, ReFrames      : 1 frame

Codec ID                       : V_MPEG4/ISO/AVC

Duration                       : 1 h 33 min

Bit rate                       : 2 534 kb/s

Width                          : 1 280 pixels

Height                         : 720 pixels

Display aspect ratio           : 16:9

Frame rate mode                : Constant

Frame rate                     : 29.970 (30000/1001) FPS

Color space                    : YUV

Chroma subsampling             : 4:2:0

Bit depth                      : 8 bits

Scan type                      : Progressive

Bits/(Pixel*Frame)             : 0.092

Stream size                    : 1.66 GiB (93%)

Title                          : kook

Writing library                : x264 core 148 r2744 b97ae06

Encoding settings              : cabac=0 / ref=1 / deblock=1:0:0 / analyse=0x1:0x111 / me=hex / subme=2 / psy=1 / psy_rd=1.00:0.00 / mixed_ref=0 / me_range=16 / chroma_me=1 / trellis=0 / 8x8dct=0 / cqm=0 / deadzone=21,11 / fast_pskip=1 / chroma_qp_offset=0 / threads=6 / lookahead_threads=2 / sliced_threads=0 / nr=0 / decimate=1 / interlaced=0 / bluray_compat=0 / constrained_intra=0 / bframes=0 / weightp=0 / keyint=250 / keyint_min=25 / scenecut=40 / intra_refresh=0 / rc_lookahead=10 / rc=crf / mbtree=1 / crf=19.0 / qcomp=0.60 / qpmin=0 / qpmax=69 / qpstep=4 / ip_ratio=1.40 / aq=1:1.00

Default                        : Yes

Forced                         : No

Audio

ID                             : 2

Format                         : AAC

Format/Info                    : Advanced Audio Codec

Format profile                 : LC

Codec ID                       : A_AAC

Duration                       : 1 h 33 min

Bit rate                       : 192 kb/s

Channel(s)                     : 2 channels

Channel positions              : Front: L R

Sampling rate                  : 48.0 kHz

Frame rate                     : 46.875 FPS (1024 spf)

Compression mode               : Lossy

Delay relative to video        : -66 ms

Stream size                    : 129 MiB (7%)

Default                        : Yes

Forced                         : No

Text #1

ID                             : 3

Format                         : ASS

Codec ID                       : S_TEXT/ASS

Codec ID/Info                  : Advanced Sub Station Alpha

Duration                       : 1 h 32 min

Bit rate                       : 23 b/s

Count of elements              : 296

Compression mode               : Lossless

Stream size                    : 16.2 KiB (0%)

Title                          : 简体字幕

Language                       : Chinese

Default                        : Yes

Forced                         : No

Text #2

ID                             : 4

Format                         : ASS

Codec ID                       : S_TEXT/ASS

Codec ID/Info                  : Advanced Sub Station Alpha

Duration                       : 1 h 32 min

Bit rate                       : 23 b/s

Count of elements              : 296

Compression mode               : Lossless

Stream size                    : 16.2 KiB (0%)

Title                          : 繁体字幕

Language                       : Chinese

Default                        : No

Forced                         : No

影片下载:

温馨提示: 此处内容需要评论本文后才能查看.

未经允许不得转载:火热播 » 被邀请的男人 The Invited Man (2017)[韩国][剧情][HD720P-1.78GB][韩语中字][BT下载]
微信公众号:火热播
关注我们,每天分享更多有趣的事儿,有趣有料!
13728人已关注
分享到:
赞(0) 打赏

为什么想看 / 观后感5

  • 昵称 (必填)
  • 邮箱 (必填)
  • 网址
  1. #5
    肯定好看
    哈妮2017-12-31 23:40:51回复
  2. #4
    行了吧 有完没完
    fdas2018-01-01 1:07:34回复
  3. #3
    希望很好看~中文的吗?
    gooderx2018-01-02 21:52:14回复
  4. #2
    肯定好看
    沉淀2018-01-06 16:59:49回复
  5. #1
    中文字幕?
    kkkk1232018-01-17 14:32:11回复

觉得文章有用就打赏一下文章作者

支付宝扫一扫打赏

微信扫一扫打赏