[2014][日本][喜剧][BD-1080P][BT下载]最近,妹妹的样子有点怪.What’s Going on with My Sister.[日语中字]8.96GB

※※※※※※※ 影片信息 ※※※※※※※

◎片   名 最近、妹のようすがちょっとおかしいんだが。

◎译   名 最近,妹妹的样子有点怪 / What’s Going on with My Sister

◎年   代 2014

◎国   家 日本

◎类   别 喜剧 / 爱情 / 奇幻

◎语   言 日语

◎上映日 期 2014-05-17(日本)

◎字   幕 简体字幕/繁体字幕

◎IMDB 评分  5.0/10 from 150 users

◎豆瓣 评分  5.2/10 from 4941 users

◎视频尺 寸  1920x1080p

◎片   长 1.57.15

◎导   演 青山裕企 / 伊基公袁

◎编     剧  伊基公袁 / Mari Matsuzawa / 港岳彦

◎主   演 桥本甜歌 / 茧 / 小林裕吉 / 矢野未夏 / 秋田和恵

 

◎简  介

《最近,妹妹的样子有点怪?》改编自累计超过40万本的同名漫画。

母亲再婚,与新“哥哥”夕哉一起生活——光是生活上的剧变就已经烦恼不已的神前美月,某日突然出现一名自称是幽灵的神秘少女日和,并且附身在美月身上。能让日和成佛的条件,竟然是要和她爱慕的“哥哥”相亲相爱。最过分的是被迫穿上一件奇怪的内裤,这是为什么…

※※※※※※※ 参数信息 ※※※※※※※

General

Unique ID                      : 253566219928341590909641825578117003276 (0xBEC313DC94095491982A4A881F40780C)

Format                         : Matroska

Format version                 : Version 4 / Version 2

File size                      : 8.97 GiB

Duration                       : 1 h 57 min

Overall bit rate               : 10.9 Mb/s

Encoded date                   : UTC 2017-12-17 04:39:52

Writing application            : mkvmerge v9.4.2 (‘So High’) 64bit

Writing library                : libebml v1.3.4 + libmatroska v1.4.5

Attachments                    : 正式海报 日本.jpg

Video

ID                             : 1

Format                         : AVC

Format/Info                    : Advanced Video Codec

Format profile                 : High@L4.1

Format settings, CABAC         : Yes

Format settings, ReFrames      : 4 frames

Codec ID                       : V_MPEG4/ISO/AVC

Duration                       : 1 h 57 min

Bit rate                       : 9 446 kb/s

Width                          : 1 920 pixels

Height                         : 1 080 pixels

Display aspect ratio           : 16:9

Frame rate mode                : Constant

Frame rate                     : 23.976 (24000/1001) FPS

Color space                    : YUV

Chroma subsampling             : 4:2:0

Bit depth                      : 8 bits

Scan type                      : Progressive

Bits/(Pixel*Frame)             : 0.190

Stream size                    : 7.73 GiB (86%)

Title                          : kook

Writing library                : x264 core 129 r2245+704+36 8e61944 tMod+MixAQ [8-bit@4:2:0 X86_64]

Encoding settings              : cabac=1 / ref=4 / deblock=1:-3:-3 / analyse=0x3:0x133 / me=umh / subme=11 / psy=1 / fade_compensate=0.00 / psy_rd=1.05:0.10 / mixed_ref=1 / me_range=32 / chroma_me=1 / trellis=2 / 8x8dct=1 / cqm=0 / deadzone=21,11 / fast_pskip=0 / chroma_qp_offset=-3 / threads=18 / lookahead_threads=3 / sliced_threads=0 / nr=0 / decimate=0 / interlaced=0 / bluray_compat=0 / constrained_intra=0 / fgo=0 / bframes=10 / b_pyramid=2 / b_adapt=2 / b_bias=0 / direct=3 / weightb=1 / open_gop=0 / weightp=2 / keyint=250 / keyint_min=23 / scenecut=40 / intra_refresh=0 / rc_lookahead=80 / rc=2pass / mbtree=1 / bitrate=9446 / ratetol=1.0 / qcomp=0.70 / qpmin=0 / qpmax=69 / qpstep=4 / cplxblur=20.0 / qblur=0.5 / ip_ratio=1.40 / aq=3 / aq-strength=0.90 / aq-sensitivity=10.00 / aq-ifactor=1.00 / aq-pfactor=1.00 / aq-bfactor=1.00 / aq2=0

Language                       : Japanese

Default                        : Yes

Forced                         : No

Audio

ID                             : 2

Format                         : DTS

Format/Info                    : Digital Theater Systems

Mode                           : 16

Format settings, Endianness    : Big

Codec ID                       : A_DTS

Duration                       : 1 h 57 min

Bit rate mode                  : Constant

Bit rate                       : 1 509 kb/s

Channel(s)                     : 6 channels

Channel positions              : Front: L C R, Side: L R, LFE

Sampling rate                  : 48.0 kHz

Frame rate                     : 93.750 FPS (512 spf)

Bit depth                      : 16 bits

Compression mode               : Lossy

Stream size                    : 1.24 GiB (14%)

Language                       : Japanese

Default                        : Yes

Forced                         : No

Text #1

ID                             : 3

Format                         : ASS

Codec ID                       : S_TEXT/ASS

Codec ID/Info                  : Advanced Sub Station Alpha

Duration                       : 1 h 53 min

Bit rate                       : 48 b/s

Count of elements              : 963

Compression mode               : Lossless

Stream size                    : 40.0 KiB (0%)

Title                          : 简体字幕

Language                       : Chinese

Default                        : Yes

Forced                         : No

Text #2

ID                             : 4

Format                         : ASS

Codec ID                       : S_TEXT/ASS

Codec ID/Info                  : Advanced Sub Station Alpha

Duration                       : 1 h 53 min

Bit rate                       : 48 b/s

Count of elements              : 963

Compression mode               : Lossless

Stream size                    : 40.0 KiB (0%)

Title                          : 繁体字幕

Language                       : Chinese

Default                        : No

Forced                         : No

Menu

00:00:00.000                   : en:00:00:00.000

00:11:37.238                   : en:00:11:37.238

00:19:23.662                   : en:00:19:23.662

00:30:04.886                   : en:00:30:04.886

00:37:38.923                   : en:00:37:38.923

00:52:23.682                   : en:00:52:23.682

01:00:47.977                   : en:01:00:47.977

01:08:42.868                   : en:01:08:42.868

01:23:11.319                   : en:01:23:11.319

01:31:14.427                   : en:01:31:14.427

01:39:57.032                   : en:01:39:57.032

01:49:00.325                   : en:01:49:00.325

01:57:14.027                   : en:01:57:14.027

影片下载:

温馨提示: 此处内容需要评论本文后才能查看.

未经允许不得转载:火热播 » [2014][日本][喜剧][BD-1080P][BT下载]最近,妹妹的样子有点怪.What’s Going on with My Sister.[日语中字]8.96GB
微信公众号:火热播
关注我们,每天分享更多有趣的事儿,有趣有料!
13728人已关注
分享到:
赞(0) 打赏

为什么想看 / 观后感2

  • 昵称 (必填)
  • 邮箱 (必填)
  • 网址
  1. #2
    好看
    大师2018-08-27 23:54:12回复
  2. #1
    结构框架
    九九2018-09-22 17:44:31回复

觉得文章有用就打赏一下文章作者

支付宝扫一扫打赏

微信扫一扫打赏