[2017][大陆][战争][BT下载][密战][WEB-MP4/1.81GB&4.47GB][国语中字][1080P&2160P][4K无水印][H265]

◎译  名 新永不消逝的电波

◎片  名 密战

◎年  代 2017

◎产  地 中国大陆

◎类  别 剧情/动作/战争

◎语  言 汉语普通话/英语

◎上映日期 2017-11-03(中国大陆)

◎豆瓣评分 4.8/10 from 9,248 users

◎豆瓣链接 https://movie.douban.com/subject/26316956/

◎片  长 100分钟

◎导  演 钟少雄 Siu-hung Chung

◎主  演 郭富城 Aaron Kwok

赵丽颖 Liying Zhao

张翰 Han Zhang

任达华 Simon Yam

张蓝心 Lanxin Zhang

朱一龙 Yilong Zhu

于晓光 Xiaoguang Yu

刘玥心 Yuexin Liu

奚美娟 Meijuan Xi

寇振海 Zhenhai Kou

由立平 Liping You

安亚平 Yaping An

孙耀威 Eric Suen

曹操 Jonathan Kos-Read

李滨 Bin Li

涂黎曼 Liman Tu

艾如 Ru Ai

◎简  介

淞沪会战后上海沦陷,地下工作者林翔(郭富城 饰)受命来到危机四伏的上海,重建惨遭敌人破坏的地下抗日战线。在这里他遇到单纯却很有正义感的兰芳(赵丽颖 饰),这对临时组成的“地下党夫妇”将在战火纷飞中,携手与日本侵略者及伪政府特务展开惊险刺激的生死较量……

General

Complete name               : 密战.Eternal.Wave.2017.4K.WEB-DL.X265.AAC.Mandarin.CHS-DYGC.mp4

Format                      : MPEG-4

Format profile              : Base Media

Codec ID                    : isom (isom/iso2/mp41)

File size                   : 2.43 GiB

Duration                    : 1 h 43 min

Overall bit rate mode       : Variable

Overall bit rate            : 3 347 kb/s

Writing application         : Lavf58.0.101

Video

ID                          : 1

Format                      : HEVC

Format/Info                 : High Efficiency Video Coding

Format profile              : Main@L5@Main

Codec ID                    : hev1

Codec ID/Info               : High Efficiency Video Coding

Duration                    : 1 h 43 min

Bit rate                    : 3 280 kb/s

Width                       : 3 840 pixels

Height                      : 1 608 pixels

Display aspect ratio        : 2.40:1

Frame rate mode             : Variable

Frame rate                  : 23.565 FPS

Minimum frame rate          : 2.186 FPS

Maximum frame rate          : 24.000 FPS

Original frame rate         : 24.000 FPS

Color space                 : YUV

Chroma subsampling          : 4:2:0

Bit depth                   : 8 bits

Bits/(Pixel*Frame)          : 0.023

Stream size                 : 2.38 GiB (98%)

Audio

ID                          : 2

Format                      : AAC

Format/Info                 : Advanced Audio Codec

Format profile              : HE-AAC / LC

Format settings             : Implicit

Codec ID                    : mp4a-40-2

Duration                    : 1 h 43 min

Bit rate mode               : Variable

Bit rate                    : 61.7 kb/s

Maximum bit rate            : 62.7 kb/s

Channel(s)                  : 2 channels

Channel positions           : Front: L R

Sampling rate               : 44.1 kHz / 22.05 kHz

Frame rate                  : 21.533 FPS (1024 SPF)

Compression mode            : Lossy

Stream size                 : 45.8 MiB (2%)

Default                     : Yes

Alternate group             : 1

内置HEVC视频,自选!!

影片下载:

温馨提示: 此处内容需要评论本文后才能查看.

未经允许不得转载:火热播 » [2017][大陆][战争][BT下载][密战][WEB-MP4/1.81GB&4.47GB][国语中字][1080P&2160P][4K无水印][H265]
微信公众号:火热播
关注我们,每天分享更多有趣的事儿,有趣有料!
13728人已关注
分享到:
赞(0) 打赏

为什么想看 / 观后感抢沙发

  • 昵称 (必填)
  • 邮箱 (必填)
  • 网址

觉得文章有用就打赏一下文章作者

支付宝扫一扫打赏

微信扫一扫打赏