[2017][日本][动画][BD-1080P][BT下载]虐杀器官[日粤双语/中字]2017.1080p.BluRay.x264.DTS-WiKi 9.74GB

Genocidal.Organ.2017.1080p.BluRay.x264.DTS-WiKi

◎译  名 虐杀器官

◎片  名 虐殺器官

◎年  代 2017

◎产  地 日本

◎类  别 科幻/动画

◎语  言 日语

◎上映日期 2017-02-03(日本)

◎IMDb评分  6.6/10 from 153 users

◎豆瓣评分 7.2/10 from 1,526 users

◎片  长 115分钟

◎导  演 村濑修功 Shukō Murase

◎主  演 中村悠一 Yuuichi Nakamura

三上哲 Satoshi Mikami

梶裕贵 Yûki Kaji

石川界人 Kaito Ishikawa

大塚明夫 Akio Ôtsuka

小林沙苗 Sanae Kobayashi

樱井孝宏 Takahiro Sakurai

◎简  介

《屠杀器官》的舞台将设定在赛拉耶佛核爆后的地球,此时部分落后国家爆发了一连串内战及民族冲突,在这血腥风暴之中,美国特殊情报部队「克拉维斯(クラヴィス)」发现了在阴影之下有一名叫「约翰·保罗(ジョン・ポール)」的美国人参与其中,约翰路过之处必定掀起腥风血雨,这让众人疯狂的 「屠杀器官」到底是什么?

剧场版动画《屠杀器官》根据早逝的天才科幻小说作家伊藤计划的同名小说改编,由富士电视台的noitaminA节目企划,manglobe制作,将于2015年10月上映。

Video
ID                                       : 1
Format                                   : AVC
Format/Info                              : Advanced Video Codec
Format profile                           : High@L4.1
Format settings                          : CABAC / 4 Ref Frames
Format settings, CABAC                   : Yes
Format settings, ReFrames                : 4 frames
Codec ID                                 : V_MPEG4/ISO/AVC
Duration                                 : 1 h 54 min
Bit rate                                 : 10.3 Mb/s
Width                                    : 1 920 pixels
Height                                   : 1 080 pixels
Display aspect ratio                     : 16:9
Frame rate mode                          : Constant
Frame rate                               : 23.976 (24000/1001) FPS
Color space                              : YUV
Chroma subsampling                       : 4:2:0
Bit depth                                : 8 bits
Scan type                                : Progressive
Bits/(Pixel*Frame)                       : 0.207
Stream size                              : 8.23 GiB (84%)
Writing library                          : x264 core 129 r2245+704+36 8e61944 tMod+MixAQ [8-bit@4:2:0 X86_64]
Encoding settings                        : cabac=1 / ref=4 / deblock=1:-1:-1 / analyse=0x3:0x133 / me=umh / subme=11 / psy=1 / fade_compensate=0.00 / psy_rd=1.05:0.10 / mixed_ref=1 / me_range=64 / chroma_me=1 / trellis=2 / 8x8dct=1 / cqm=0 / deadzone=21,11 / fast_pskip=0 / chroma_qp_offset=-3 / threads=18 / lookahead_threads=3 / sliced_threads=0 / nr=0 / decimate=0 / interlaced=0 / bluray_compat=0 / constrained_intra=0 / fgo=0 / bframes=10 / b_pyramid=2 / b_adapt=2 / b_bias=0 / direct=3 / weightb=1 / open_gop=0 / weightp=2 / keyint=250 / keyint_min=23 / scenecut=40 / intra_refresh=0 / rc=2pass / mbtree=0 / bitrate=10288 / ratetol=1.0 / qcomp=0.70 / qpmin=0 / qpmax=69 / qpstep=4 / cplxblur=20.0 / qblur=0.5 / ip_ratio=1.40 / pb_ratio=1.30 / aq=1 / aq-strength=0.95 / aq-sensitivity=10.00 / aq-ifactor=1.00 / aq-pfactor=1.00 / aq-bfactor=1.00 / aq2=0
Language                                 : Japanese
Default                                  : Yes
Forced                                   : No

Audio #1
ID                                       : 2
Format                                   : DTS
Format/Info                              : Digital Theater Systems
Codec ID                                 : A_DTS
Duration                                 : 1 h 54 min
Bit rate mode                            : Constant
Bit rate                                 : 1 509 kb/s
Channel(s)                               : 6 channels
Channel positions                        : Front: L C R, Side: L R, LFE
Sampling rate                            : 48.0 kHz
Frame rate                               : 93.750 FPS (512 SPF)
Bit depth                                : 24 bits
Compression mode                         : Lossy
Stream size                              : 1.21 GiB (12%)
Language                                 : Japanese
Default                                  : Yes
Forced                                   : No

Audio #2
ID                                       : 3
Format                                   : AC-3
Format/Info                              : Audio Coding 3
Codec ID                                 : A_AC3
Duration                                 : 1 h 54 min
Bit rate mode                            : Constant
Bit rate                                 : 384 kb/s
Channel(s)                               : 2 channels
Channel positions                        : Front: L R
Sampling rate                            : 48.0 kHz
Frame rate                               : 31.250 FPS (1536 SPF)
Bit depth                                : 16 bits
Compression mode                         : Lossy
Stream size                              : 315 MiB (3%)
Language                                 : Chinese
Service kind                             : Complete Main
Default                                  : No
Forced                                   : No

Text #1
ID                                       : 4
Format                                   : UTF-8
Codec ID                                 : S_TEXT/UTF8
Codec ID/Info                            : UTF-8 Plain Text
Duration                                 : 1 h 48 min
Bit rate                                 : 51 b/s
Count of elements                        : 1216
Stream size                              : 40.9 KiB (0%)
Title                                    : Simplified
Language                                 : Chinese
Default                                  : Yes
Forced                                   : No

Text #2
ID                                       : 5
Format                                   : UTF-8
Codec ID                                 : S_TEXT/UTF8
Codec ID/Info                            : UTF-8 Plain Text
Duration                                 : 1 h 48 min
Bit rate                                 : 51 b/s
Count of elements                        : 1216
Stream size                              : 40.9 KiB (0%)
Title                                    : Traditional
Language                                 : Chinese
Default                                  : No
Forced                                   : No

Menu
00:00:00.000                             : en:00:00:00.000
00:02:13.049                             : en:00:02:13.049
00:16:27.945                             : en:00:16:27.945
00:19:00.556                             : en:00:19:00.556
00:21:27.786                             : en:00:21:27.786
00:28:02.180                             : en:00:28:02.180
00:29:48.536                             : en:00:29:48.536
00:37:28.913                             : en:00:37:28.913
00:42:08.984                             : en:00:42:08.984
00:44:07.436                             : en:00:44:07.436
00:48:42.711                             : en:00:48:42.711
00:53:14.232                             : en:00:53:14.232
00:57:21.187                             : en:00:57:21.187
01:01:45.326                             : en:01:01:45.326
01:05:24.295                             : en:01:05:24.295
01:16:28.625                             : en:01:16:28.625
01:21:16.246                             : en:01:21:16.246
01:27:24.405                             : en:01:27:24.405
01:30:40.101                             : en:01:30:40.101
01:42:55.252                             : en:01:42:55.252
01:49:20.387                             : en:01:49:20.387



影片下载:

温馨提示: 此处内容需要评论本文后才能查看.

未经允许不得转载:火热播 » [2017][日本][动画][BD-1080P][BT下载]虐杀器官[日粤双语/中字]2017.1080p.BluRay.x264.DTS-WiKi 9.74GB
微信公众号:火热播
关注我们,每天分享更多有趣的事儿,有趣有料!
13728人已关注
分享到:
赞(1) 打赏

为什么想看 / 观后感抢沙发

  • 昵称 (必填)
  • 邮箱 (必填)
  • 网址

觉得文章有用就打赏一下文章作者

支付宝扫一扫打赏

微信扫一扫打赏