[2017][欧美][犯罪][BD-1080P][BT下载]复仇天使 M.F.A.2017.1080p.BluRay.x264.DTS-MT 9.27GB

◎译  名 复仇天使

◎片  名 M.F.A.

◎年  代 2017

◎产  地 美国

◎类  别 剧情/犯罪/惊悚

◎语  言 英语

◎上映日期 2017-03-13(西南偏南电影节)/2017-10-13(美国)

◎IMDb评分  5.7/10 from 881 users

◎IMDb链接  http://www.imdb.com/title/tt5091530/

◎豆瓣评分 5.7/10 from 297 users

◎豆瓣链接 https://movie.douban.com/subject/27024947/

◎BT之家整理 http://www.btbtt.me/

◎片  长 95分钟

◎导  演 娜塔莉·雷特 Natalia Leite

◎主  演 弗朗西斯卡·伊斯特伍德 Francesca Eastwood

小克利夫顿·克林斯 Clifton Collins Jr.

迈克·韦尔奇 Michael Welch

安德鲁·卡德威尔 Andrew Caldwell

大卫·苏利文 David Sullivan

彼得·瓦克 Peter Vack

亚当·拉扎尔-怀特 Adam Lazarre-White

马龙·杨 Marlon Young

Mike C. Manning

◎简  介

故事讲述艺术系女生诺丽遭到同学性侵后,决定正面PK性侵者、展开还击计划。影片今秋北美上映。

Video
ID                                       : 1
Format                                   : AVC
Format/Info                              : Advanced Video Codec
Format profile                           : High@L4.1
Format settings                          : CABAC / 4 Ref Frames
Format settings, CABAC                   : Yes
Format settings, ReFrames                : 4 frames
Codec ID                                 : V_MPEG4/ISO/AVC
Duration                                 : 1 h 32 min
Bit rate                                 : 12.6 Mb/s
Width                                    : 1 920 pixels
Height                                   : 1 038 pixels
Display aspect ratio                     : 1.85:1
Frame rate mode                          : Constant
Frame rate                               : 23.976 (24000/1001) FPS
Color space                              : YUV
Chroma subsampling                       : 4:2:0
Bit depth                                : 8 bits
Scan type                                : Progressive
Bits/(Pixel*Frame)                       : 0.264
Stream size                              : 8.11 GiB (88%)
Language                                 : English
Default                                  : Yes
Forced                                   : No

Audio
ID                                       : 2
Format                                   : DTS
Format/Info                              : Digital Theater Systems
Codec ID                                 : A_DTS
Duration                                 : 1 h 32 min
Bit rate mode                            : Constant
Bit rate                                 : 1 509 kb/s
Channel(s)                               : 6 channels
Channel positions                        : Front: L C R, Side: L R, LFE
Sampling rate                            : 48.0 kHz
Frame rate                               : 93.750 FPS (512 SPF)
Bit depth                                : 16 bits
Compression mode                         : Lossy
Stream size                              : 994 MiB (10%)
Language                                 : English
Default                                  : Yes
Forced                                   : No



影片下载:

温馨提示: 此处内容需要评论本文后才能查看.

未经允许不得转载:火热播 » [2017][欧美][犯罪][BD-1080P][BT下载]复仇天使 M.F.A.2017.1080p.BluRay.x264.DTS-MT 9.27GB
微信公众号:火热播
关注我们,每天分享更多有趣的事儿,有趣有料!
13728人已关注
分享到:
赞(0) 打赏

为什么想看 / 观后感抢沙发

  • 昵称 (必填)
  • 邮箱 (必填)
  • 网址

觉得文章有用就打赏一下文章作者

支付宝扫一扫打赏

微信扫一扫打赏