[2016][欧美][奇幻][BD-1080P] [BT下载]黑夜传说5:血战 Underworld.Blood.Wars.2016.1080p.BluRay.x264.DTSHD.5.1 -DDR 8.28G

◎译  名 黑夜传说5:血战/妖夜寻狼:世纪血战(港)

◎片  名 Underworld: Blood Wars

◎年  代 2016

◎产  地 美国

◎类  别 动作/奇幻/惊悚

◎语  言 英语/乌克兰语

◎上映日期 2016-11-24(俄罗斯)/2017-01-06(美国)

◎豆瓣评分 5.7/10 from 14,854 users

◎片  长 91分钟

◎导  演 安娜·福斯特 Anna Foerster

◎主  演 凯特·贝金赛尔 Kate Beckinsale

提奥·詹姆斯 Theo James

托比亚斯·门基斯 Tobias Menzies

拉娜·普尔弗 Lara Pulver

查尔斯·丹斯 Charles Dance

詹姆斯·福克纳 James Faulkner

彼得·安德森 Peter Andersson

布莱德利·詹姆斯 Bradley James

黛茜·海德 Daisy Head

◎简  介

故事紧接第四集,狼族和血族的混血之女伊薇的血液已经成为了,狼族和吸血鬼都想得到的至宝。伊薇之母吸血鬼精英女战士赛琳娜将其藏匿,自己却成为了两大种族猎杀的目标。与此同时狼族的新首领马瑞思集结了大批人马,对血族展开的势不可挡的进攻,摧毁了血族的大量据点,血族形势岌岌可危。

为了挽回与狼族战争的颓势,吸血鬼新长老塞米拉向委员会提出,特赦赛琳娜让其重回血族阵营,训练吸血鬼战士,抵抗狼族的进攻。在大卫父子的帮组下,塞米拉终于说服的委员会,赛琳娜重回吸血鬼基地。而塞米拉真正图谋的却是赛琳娜进化的血液。赛琳娜惨遭暗算即将被塞米拉抽干血液的千钧一发之际,大卫救出了赛琳娜,而大卫之父却在掩护其子逃走的战斗中惨遭杀害。大卫和赛琳娜逃亡血族北欧据点。

为了伊薇的行踪,狼族首领带领大队人马追踪而至,狼族血族大战迫在眉睫一触即发。

Source: Bluray @ DDR

Format                                   : Matroska
File size                                : 8.23 GiB
Duration                                 : 1 h 31 min
Overall bit rate                         : 12.9 Mb/s

Video
Format                                   : AVC
Format profile                           : High@L4.1
Bit rate                                 : 10.5 Mb/s
Width                                    : 1 920 pixels
Height                                   : 800 pixels
Display aspect ratio                     : 2.40:1
Frame rate                               : 23.976 (24000/1001) FPS
Bit depth                                : 8 bits
Stream size                              : 6.71 GiB (82%)
Color primaries                          : BT.709

Audio
Format                                   : DTSHD-MA 5.1
Bit rate                                 : 2 354 kb/s / 1 509 kb/s
Bit depth                                : 16
Stream size                              : 4.32 GiB (33%)
Language                                 : English

Chapters = YES

Sample Included

           

影片下载:

温馨提示: 此处内容需要评论本文后才能查看.

未经允许不得转载:火热播 » [2016][欧美][奇幻][BD-1080P] [BT下载]黑夜传说5:血战 Underworld.Blood.Wars.2016.1080p.BluRay.x264.DTSHD.5.1 -DDR 8.28G
微信公众号:火热播
关注我们,每天分享更多有趣的事儿,有趣有料!
13728人已关注
分享到:
赞(0) 打赏

为什么想看 / 观后感1

  • 昵称 (必填)
  • 邮箱 (必填)
  • 网址
  1. #1
    不錯
    吳王2018-01-20 1:44:31回复

觉得文章有用就打赏一下文章作者

支付宝扫一扫打赏

微信扫一扫打赏